<?xml version="1.0" standalone="no"?>
<!DOCTYPE svg PUBLIC "-//W3C//DTD SVG 1.1//EN" "http://www.w3.org/Graphics/SVG/1.1/DTD/svg11.dtd" >
<svg xmlns="http://www.w3.org/2000/svg">
<metadata>
<json>
<![CDATA[
{
	"fontFamily": "adspoticons",
	"majorVersion": 1,
	"minorVersion": 0,
	"fontURL": "http://flaticon.com/",
	"designerURL": "http://flaticon.com/",
	"license": "CC BY 3.0",
	"licenseURL": "https://en.wikipedia.org/wiki/Creative_Commons_license",
	"version": "Version 1.0",
	"fontId": "adspoticons",
	"psName": "adspoticons",
	"subFamily": "Regular",
	"fullName": "adspoticons",
	"description": "Font generated by IcoMoon."
}
]]>
</json>
</metadata>
<defs>
<font id="adspoticons" horiz-adv-x="1024">
<font-face units-per-em="1024" ascent="960" descent="-64" />
<missing-glyph horiz-adv-x="1024" />
<glyph unicode="&#x20;" horiz-adv-x="512" d="" />
<glyph unicode="&#xe900;" glyph-name="activate" data-tags="activate" horiz-adv-x="1006" d="M858.484 798.705c-95.014 95.014-221.319 147.326-355.644 147.326-134.349 0-260.652-52.31-355.668-147.338-95.014-94.991-147.338-221.272-147.338-355.621 0-134.337 52.31-260.64 147.338-355.656 69.108-69.096 156.304-116.25 252.23-136.324 5.643-1.183 11.309 0.26 15.698 3.785 4.412 3.596 6.932 8.931 6.932 14.574v438.557c0 23.576-13.001 36.589-36.589 36.589l-87.704-1.372c-0.804 1.621-0.379 7.926 3.987 12.279l198.5 198.5c2.342 2.378 4.554 2.378 6.885 0l198.512-198.5c1.857-1.881 2.827-4.696 2.591-7.512-0.201-2.058-0.923-3.182-1.337-3.431l-82.321 2.543c-25.067 0-43.982-16.822-43.982-39.132v-439.267c0-5.654 2.52-10.978 6.873-14.538 3.395-2.756 7.606-4.223 11.912-4.223 1.242 0 2.52 0.118 3.738 0.355 97.050 19.661 185.334 67.097 255.388 137.117 94.991 95.014 147.326 221.319 147.326 355.656 0 134.361-52.286 260.629-147.326 355.633zM831.927 113.986c-59.337-59.337-132.858-101.108-213.784-121.703l-0.177 415.466c0.39 0.509 2.697 1.798 5.974 1.798l82.321-2.543c16.064 0 29.881 9.345 36.104 24.369 7.098 17.117 3.005 37.511-10.197 50.701l-198.5 198.5c-16.064 16.041-43.97 16.041-59.999 0l-198.5-198.5c-14.231-14.231-19.235-36.092-12.149-53.197 5.678-13.722 18.135-21.873 33.312-21.873h88.153v-413.81c-79.849 20.891-152.318 62.353-210.744 120.792-87.905 87.929-136.313 204.793-136.313 329.099 0 124.294 48.442 241.157 136.313 329.075 87.94 87.905 204.793 136.301 329.111 136.301 124.329 0 241.193-48.43 329.111-136.301 87.905-87.929 136.301-204.793 136.301-329.075-0.012-124.317-48.43-241.181-136.336-329.099z" />
<glyph unicode="&#xe901;" glyph-name="alarm" data-tags="alarm" horiz-adv-x="1006" d="M106.862 830.026c3.786 0 7.615 1.086 11 3.333l135.317 90.156c9.134 6.086 11.612 18.436 5.505 27.57-6.075 9.134-18.362 11.623-27.57 5.516l-135.317-90.156c-9.155-6.086-11.612-18.436-5.516-27.57 3.86-5.737 10.167-8.849 16.58-8.849zM887.769 833.37c3.386-2.246 7.204-3.333 11-3.333 6.444 0 12.709 3.101 16.569 8.849 6.075 9.134 3.618 21.484-5.516 27.57l-135.339 90.156c-9.186 6.107-21.505 3.618-27.591-5.516-6.054-9.134-3.618-21.484 5.537-27.57l135.339-90.156zM719.935 296.952l-219.766 130.297v329.887c0 10.979-8.912 19.881-19.881 19.881s-19.881-8.902-19.881-19.881v-341.162c0-7.014 3.712-13.511 9.735-17.139l229.49-136.098c3.164-1.867 6.687-2.753 10.125-2.753 6.813 0 13.405 3.47 17.107 9.714 5.643 9.439 2.479 21.642-6.929 27.253zM760.203 77.080c115.363 81.221 191.079 215.157 191.079 366.664 0 247.251-201.172 448.435-448.488 448.435-247.251 0-448.414-201.183-448.414-448.435 0-151.486 75.674-285.411 191.005-366.633l-102.232-107.505c-7.583-7.973-7.267-20.524 0.686-28.107 3.85-3.681 8.775-5.495 13.711-5.495 5.242 0 10.494 2.067 14.386 6.191l106.841 112.336c0.264 0.253 0.348 0.601 0.559 0.886 65.865-38.074 142.046-60.191 223.458-60.191 81.401 0 157.55 22.138 223.458 60.191 0.221-0.264 0.306-0.601 0.548-0.854l106.904-112.346c3.913-4.113 9.134-6.18 14.386-6.18 4.946 0 9.872 1.814 13.7 5.495 7.973 7.552 8.311 20.155 0.696 28.107l-102.285 107.442zM94.164 443.744c0 225.356 183.316 408.672 408.651 408.672 225.398 0 408.704-183.316 408.704-408.672 0-225.388-183.316-408.725-408.704-408.725-225.335 0.032-408.651 183.38-408.651 408.725z" />
<glyph unicode="&#xe902;" glyph-name="arrow-left" data-tags="arrow-left" horiz-adv-x="1006" d="M55.73 430.58h595.193c9.617 0 17.425 7.796 17.425 17.413s-7.807 17.413-17.425 17.413h-595.169l147.48 147.468c6.802 6.802 6.802 17.851 0 24.641-6.802 6.802-17.839 6.802-24.641 0l-173.942-173.942c-4.247-4.235-5.524-10.091-4.448-15.579-1.041-5.465 0.225-11.309 4.448-15.544l173.954-173.93c3.395-3.383 7.843-5.11 12.303-5.11s8.908 1.68 12.314 5.11c6.802 6.802 6.802 17.815 0 24.617l-147.491 147.444zM919.608 848.508h-537.299c-47.519 0-86.201-38.682-86.201-86.201v-78.879c0-9.617 7.796-17.413 17.413-17.413 9.606 0 17.413 7.796 17.413 17.413v78.867c0 28.32 23.056 51.375 51.375 51.375h537.299c28.343 0 51.387-23.056 51.387-51.375v-632.823c0-26.888-22.441-47.152-52.239-47.152h-535.975c-29.562 0-51.849 20.264-51.849 47.152v86.343c0 9.617-7.807 17.413-17.413 17.413-9.617 0-17.413-7.796-17.413-17.413v-86.343c0-46.75 37.263-81.99 86.675-81.99h535.975c48.832 0 87.053 36.009 87.053 81.99v632.823c0 47.531-38.671 86.213-86.201 86.213z" />
<glyph unicode="&#xe903;" glyph-name="attachment" data-tags="attachment" horiz-adv-x="1006" d="M936.406 818.141c-41.983 41.983-96.909 66.777-154.696 69.841-57.503 2.898-112.157-17.413-153.749-57.432l-389.465-389.465c-26.794-26.853-40.93-61.123-40.93-99.215 0-37.594 14.527-72.775 40.93-99.168 26.049-26.037 62.235-40.966 99.192-40.966 36.967 0 73.118 14.929 99.203 40.966l302.719 302.755c6.932 6.897 6.932 18.099 0 25.008-6.897 6.897-18.075 6.897-24.972 0l-302.743-302.778c-19.483-19.46-46.549-30.615-74.206-30.615-27.646 0-54.711 11.155-74.195 30.615-20.027 20.015-30.591 45.662-30.591 74.183s10.576 54.191 30.591 74.195l389.193 389.228c34.258 32.992 79.352 49.968 127.18 47.389 48.998-2.555 95.736-23.742 131.557-59.514 73.804-73.863 79.234-190.527 12.35-259.883l-407.422-407.469c-52.121-53.398-122.91-82.771-199.293-82.771-75.141 0-145.965 29.444-199.435 82.913-109.956 109.968-109.956 288.891 0 398.858l275.238 275.226c6.897 6.897 6.897 18.075 0 24.984-6.897 6.897-18.087 6.897-24.996 0l-275.238-275.226c-123.726-123.738-123.726-325.113 0-448.849 60.141-60.129 139.826-93.228 224.407-93.228 85.989 0 165.732 33.17 224.407 93.228l407.564 407.588c80.393 83.327 74.786 222.242-12.598 309.604z" />
<glyph unicode="&#xe904;" glyph-name="bell" data-tags="bell" horiz-adv-x="1006" d="M789.329 277.377h-572.953c-8.056 0-14.598-6.542-14.598-14.586s6.542-14.598 14.598-14.598h572.965c8.056 0 14.586 6.565 14.586 14.598 0 8.044-6.542 14.586-14.598 14.586zM991.224 159.045h-42.409v69.451c0 8.068-6.542 14.586-14.598 14.586-14.089 0-24.96 3.797-32.295 11.274-12.516 12.729-12.279 32.815-12.279 33.347v144.652c0 197.814-220.527 224.005-224.324 224.3h-147.894v74.455c43.071 7.027 76.158 44.242 76.158 89.277 0 50.039-40.741 90.756-90.768 90.756-50.015 0-90.72-40.717-90.72-90.756 0-45.023 33.063-82.25 76.135-89.277v-74.455l-149.431-0.071c-2.212-0.248-222.739-26.415-222.739-224.229v-144.96c0-0.213 0.213-20.276-12.279-32.992-7.382-7.488-18.253-11.285-32.342-11.285-8.056 0-14.598-6.542-14.598-14.586v-69.463h-42.421c-8.056 0-14.586-6.554-14.586-14.586v-145.043c0-8.056 6.53-14.586 14.586-14.586h976.791c8.044 0 14.586 6.542 14.586 14.586v145.031c0.024 8.020-6.518 14.574-14.574 14.574zM441.291 820.388c0 33.962 27.61 61.572 61.537 61.572 33.951 0 61.572-27.61 61.572-61.572 0-33.738-27.291-61.17-60.957-61.513-0.237 0.024-0.414 0.142-0.615 0.142-0.225 0-0.414-0.118-0.627-0.142-33.619 0.367-60.91 27.787-60.91 61.513zM86.049 214.998c15.733 2.366 28.746 8.813 38.824 19.211 21.092 21.695 20.43 52.629 20.394 53.505v144.64c0 171.47 188.682 194.313 195.117 195.117l323.374 0.071c8.032-0.852 196.678-23.257 196.678-195.188v-144.191c-0.035-1.301-0.686-32.247 20.418-53.966 10.102-10.398 23.091-16.822 38.765-19.199v-55.942h-833.57v55.942zM976.627 14.014h-947.596v115.848h947.596v-115.848z" />
<glyph unicode="&#xe905;" glyph-name="briefcase" data-tags="briefcase" horiz-adv-x="1006" d="M934.703 741.77h-269.536c0.035 2.673-0.355 5.323-1.751 7.796l-43.118 75.378c-14.467 25.445-37.701 40.622-62.128 40.622h-109.637c-24.664 0-48.028-15.414-62.554-41.261-26.971-48.134-39.227-69.143-41.675-72.704-2.319-2.851-3.348-6.352-3.312-9.842h-269.43c-39.191 0-71.083-31.88-71.083-71.072v-175.385c-0.035-0.118-0.118-0.201-0.154-0.319-0.793-2.886-0.544-5.69 0.154-8.328v-385.159c0-39.203 31.892-71.083 71.083-71.083h863.144c39.203 0 71.107 31.869 71.107 71.083v569.204c0 39.191-31.892 71.072-71.107 71.072zM412.675 809.328c9.132 16.301 22.216 25.646 35.867 25.646h109.637c13.474 0 26.415-9.192 35.548-25.185l38.872-68.008h-258.44c5.69 9.487 16.561 28.391 38.517 67.546zM71.557 711.167h863.144c22.358 0 40.504-18.146 40.504-40.469v-174.616l-65.89-82.357c-6.932-8.683-17.295-13.675-28.426-13.675h-736.864c-9.771 0-19.176 4.128-25.776 11.356-52.511 57.385-75.709 79.139-87.16 87.834v171.458c-0.024 22.31 18.158 40.469 40.469 40.469zM934.703 61.036h-863.144c-22.31 0-40.481 18.17-40.481 40.481v356.792c14.042-13.628 34.968-35.205 64.577-67.558 12.362-13.557 30.011-21.317 48.359-21.317h736.864c20.501 0 39.558 9.156 52.31 25.138l42.018 52.487v-345.566c0-22.31-18.17-40.457-40.504-40.457zM513.735 479.106c37.618 0 68.268 30.638 68.268 68.292 0 37.665-30.65 68.28-68.268 68.28-37.653 0-68.28-30.627-68.28-68.28s30.627-68.292 68.28-68.292zM513.735 585.063c20.761 0 37.665-16.916 37.665-37.677 0-20.784-16.904-37.701-37.665-37.701-20.773 0-37.677 16.916-37.677 37.701 0.012 20.761 16.904 37.677 37.677 37.677z" />
<glyph unicode="&#xe906;" glyph-name="buildings" data-tags="buildings" horiz-adv-x="1006" d="M405.249 725.686h195.171c8.304 0 15.047 6.743 15.047 15.047s-6.743 15.059-15.047 15.059h-195.171c-8.316 0-15.047-6.743-15.047-15.059s6.731-15.047 15.047-15.047zM923.702 755.803h-178.113v128.809c0 36.599-29.786 66.35-66.373 66.35h-352.784c-36.588 0-66.385-29.762-66.385-66.35v-128.809h-178.149c-45.247 0-82.059-36.812-82.059-82.071v-646.61c0-45.27 36.812-82.071 82.059-82.071h841.805c45.258 0 82.094 36.801 82.094 82.071v646.598c0 45.247-36.836 82.083-82.094 82.083zM290.174 884.588c0 19.991 16.277 36.245 36.268 36.245h352.76c19.991 0 36.256-16.253 36.256-36.245v-909.445h-90.872v152.645c0 28.52-17.058 45.542-45.566 45.542h-137.208c-28.52 0-45.566-17.010-45.566-45.542v-152.645h-106.062v909.445zM594.493-24.868h-168.117v152.657c0 11.817 3.62 15.425 15.461 15.425h137.208c11.865 0 15.473-3.608 15.473-15.425v-152.645h-0.024zM29.966 27.109v646.61c0 28.662 23.303 51.966 51.954 51.966h178.149v-750.554h-178.149c-28.638 0-51.954 23.292-51.954 51.977zM975.679 27.109c0-28.686-23.327-51.977-51.989-51.977h-178.101v750.554h178.113c28.662 0 51.989-23.303 51.989-51.966v-646.61zM112.498 563.022h65.037c8.316 0 15.047 6.743 15.047 15.047s-6.743 15.059-15.047 15.059h-65.037c-8.316 0-15.059-6.743-15.059-15.059s6.743-15.047 15.059-15.047zM893.158 593.139h-65.084c-8.304 0-15.047-6.743-15.047-15.059s6.743-15.047 15.047-15.047h65.084c8.316 0 15.047 6.743 15.047 15.047s-6.731 15.059-15.047 15.059zM177.536 397.992h-65.037c-8.316 0-15.059-6.743-15.059-15.047 0-8.316 6.743-15.047 15.059-15.047h65.037c8.316 0 15.047 6.731 15.047 15.047 0 8.292-6.719 15.047-15.047 15.047zM893.158 397.992h-65.084c-8.304 0-15.047-6.743-15.047-15.047 0-8.316 6.743-15.047 15.047-15.047h65.084c8.316 0 15.047 6.731 15.047 15.047 0 8.292-6.731 15.047-15.047 15.047zM177.536 202.821h-65.037c-8.316 0-15.059-6.743-15.059-15.047 0-8.316 6.743-15.059 15.059-15.059h65.037c8.316 0 15.047 6.743 15.047 15.059 0 8.304-6.719 15.047-15.047 15.047zM893.158 202.821h-65.084c-8.304 0-15.047-6.743-15.047-15.047 0-8.316 6.743-15.059 15.047-15.059h65.084c8.316 0 15.047 6.743 15.047 15.059 0 8.304-6.731 15.047-15.047 15.047zM405.249 530.527h195.171c8.304 0 15.047 6.743 15.047 15.047 0 8.292-6.743 15.059-15.047 15.059h-195.171c-8.316 0-15.047-6.766-15.047-15.059-0.012-8.316 6.731-15.047 15.047-15.047zM405.249 335.321h195.171c8.304 0 15.047 6.743 15.047 15.047 0 8.316-6.743 15.059-15.047 15.059h-195.171c-8.316 0-15.047-6.743-15.047-15.059-0.012-8.304 6.731-15.047 15.047-15.047z" />
<glyph unicode="&#xe907;" glyph-name="cancel" data-tags="cancel" horiz-adv-x="1006" d="M858.46 803.638c-95.003 95.014-221.296 147.338-355.656 147.338-134.349 0-260.652-52.31-355.609-147.338-95.038-94.979-147.361-221.272-147.361-355.621s52.322-260.688 147.361-355.644c94.979-94.991 221.26-147.338 355.609-147.338 134.361 0 260.676 52.345 355.656 147.338 94.991 95.003 147.361 221.296 147.361 355.644s-52.369 260.64-147.361 355.621zM171.814 779.009c88.402 88.425 205.953 137.117 330.992 137.117 119.207 0 231.28-44.704 318.121-125.394l-660.835-660.858c-80.748 86.84-125.418 198.902-125.418 318.109-0.024 125.051 48.678 242.624 137.141 331.027zM833.831 116.979c-88.449-88.449-206.012-137.141-331.051-137.141-119.183 0-231.256 44.692-318.086 125.418l660.835 660.847c80.724-86.84 125.418-198.914 125.418-318.109 0.047-125.051-48.69-242.624-137.117-331.015z" />
<glyph unicode="&#xe908;" glyph-name="car" data-tags="car" horiz-adv-x="1006" d="M451.346 442.469h-58.804c-5.785 0-10.469-4.684-10.469-10.469s4.684-10.481 10.469-10.481h58.804c5.773 0 10.469 4.684 10.469 10.481 0 5.785-4.673 10.469-10.469 10.469zM565.928 653.936c-1.976 2.922-5.205 4.661-8.707 4.661h-164.668c-5.785 0-10.469-4.684-10.469-10.469v-132.338c0-5.773 4.684-10.469 10.469-10.469h252.845c0.106 0.012 0.225 0 0.296 0 5.773 0 10.469 4.696 10.469 10.469 0 2.957-1.207 5.607-3.194 7.512l-87.041 130.634zM403.034 526.282v111.4h148.603l74.23-111.4h-222.833zM311.697 658.596h-72.030c-3.017 0-5.879-1.301-7.867-3.584l-116.12-132.314c-2.709-3.087-3.371-7.476-1.668-11.226 1.692-3.75 5.43-6.151 9.535-6.151h188.173c5.785 0 10.469 4.696 10.469 10.469v132.35c-0.024 5.773-4.708 10.457-10.493 10.457zM301.228 526.282h-154.601l97.76 111.4h56.817l0.024-111.4zM877.719 526.282h-137.022l-136.585 202.664c-1.964 2.898-5.181 4.614-8.659 4.614h-394.019c-3.005 0-5.856-1.289-7.843-3.525l-191.13-216.114c-1.692-1.905-2.626-4.377-2.626-6.932v-220.515c0-5.773 4.684-10.469 10.469-10.469h62.85c5.347-63.501 58.651-113.588 123.549-113.588 64.861 0 118.131 50.074 123.478 113.588h383.87c5.335-63.501 58.627-113.588 123.537-113.588 64.837 0 118.131 50.074 123.478 113.588h44.278c5.785 0 10.481 4.684 10.481 10.469v111.731c-0.047 70.61-57.468 128.079-128.103 128.079zM196.691 183.366c-56.853 0-103.131 46.241-103.131 103.107s46.253 103.107 103.131 103.107c56.841 0 103.072-46.241 103.072-103.107s-46.218-103.107-103.072-103.107zM827.574 183.366c-56.119 0-101.77 45.011-103.048 100.789 0.213 0.781 0.461 1.479 0.461 2.319s-0.284 1.55-0.461 2.319c1.278 55.764 46.928 100.789 103.048 100.789 56.58 0 102.658-45.863 103.036-102.409-0.024-0.248-0.166-0.438-0.166-0.698s0.142-0.45 0.166-0.698c-0.402-56.545-46.466-102.409-103.036-102.409zM984.836 296.931h-33.797c-5.347 63.501-58.639 113.588-123.489 113.588-64.861 0-118.202-50.074-123.537-113.588h-383.846c-5.347 63.501-58.627 113.588-123.478 113.588-64.873 0-118.202-50.074-123.537-113.588h-52.393v206.071l185.369 209.62h383.716l136.573-202.664c1.964-2.898 5.193-4.625 8.683-4.625h142.606c59.029 0 107.117-48.028 107.117-107.141l0.012-101.262zM196.667 355.652c-38.162 0-69.203-31.052-69.203-69.203 0-5.785 4.684-10.481 10.469-10.481 5.773 0 10.469 4.684 10.469 10.481 0 26.605 21.66 48.252 48.264 48.252 5.773 0 10.469 4.684 10.469 10.481-0.012 5.785-4.696 10.469-10.469 10.469zM886.248 296.931c-5.785 0-10.481-4.684-10.481-10.469 0-26.616-21.648-48.264-48.193-48.264-5.785 0-10.481-4.684-10.481-10.469s4.684-10.481 10.481-10.481c38.115 0 69.143 31.064 69.143 69.214-0.012 5.773-4.696 10.469-10.469 10.469z" />
<glyph unicode="&#xe909;" glyph-name="cart" data-tags="cart" horiz-adv-x="1006" d="M305.7 281.754l547.65-1.408c21.459 1.301 39.274 15.118 44.408 34.767l106.632 447.713c3.407 12.776 0.615 26.285-7.642 36.991-9.144 11.889-24.049 18.986-39.877 18.986h-759.541c-0.473 0-0.887-0.248-1.36-0.26l-26.735 108.963c-1.881 7.583-8.659 12.93-16.502 12.93h-135.922c-9.369 0-16.975-7.606-16.975-16.975s7.606-16.975 16.975-16.975h122.649l145.421-593.182c-44.278-9.677-77.53-49.069-77.53-96.175 0-33.88 17.212-63.82 43.32-81.541-26.12-17.756-43.32-47.649-43.32-81.541 0-54.38 44.23-98.588 98.576-98.588s98.541 44.207 98.541 98.588c0 24.795-9.523 47.223-24.712 64.577h426.633c-15.165-17.354-24.712-39.783-24.712-64.577 0-54.38 44.195-98.588 98.529-98.588 54.38 0 98.576 44.207 98.576 98.588 0 54.333-44.195 98.529-98.576 98.529h-574.278c-0.118 0-0.225-0.024-0.331-0.024-35.488 0.189-64.305 29.018-64.305 64.565 0.012 35.595 28.888 64.518 64.412 64.636zM956.859 784.9c5.347 0 10.209-2.141 13.001-5.749 1.81-2.413 2.39-4.968 1.597-7.997l-106.632-447.749c-1.301-4.886-6.979-8.754-12.468-9.085l-533.124 1.384-115.031 469.208 752.657-0.012zM305.925-10.532c-35.642 0-64.625 28.97-64.625 64.625 0 35.5 28.817 64.341 64.317 64.565 0.106 0 0.225-0.047 0.331-0.047 0.083 0 0.142 0.047 0.237 0.047 35.5-0.154 64.376-28.994 64.376-64.565-0.024-35.619-29.006-64.625-64.636-64.625zM944.864 54.116c0-35.654-28.97-64.625-64.601-64.625-35.607 0-64.613 28.97-64.613 64.625 0 35.619 28.982 64.589 64.613 64.589 35.63-0.024 64.601-28.97 64.601-64.589z" />
<glyph unicode="&#xe90a;" glyph-name="check-empty" data-tags="check-empty" horiz-adv-x="1006" d="M933.804 953.671h-861.961c-39.722 0-72.004-32.282-72.004-71.992v-867.357c0-39.711 32.282-72.016 72.004-72.016h861.961c39.699 0 71.992 32.294 71.992 72.016v867.357c0 39.699-32.282 71.992-71.992 71.992zM968.286 14.345c0-19.045-15.461-34.506-34.482-34.506h-861.961c-19.033 0-34.494 15.461-34.494 34.506v867.333c0 19.021 15.461 34.482 34.494 34.482h861.961c19.021 0 34.482-15.461 34.482-34.482v-867.333z" />
<glyph unicode="&#xe90b;" glyph-name="check-fill" data-tags="check-fill" horiz-adv-x="1006" d="M933.804 953.671h-861.961c-39.722 0-72.004-32.282-72.004-71.992v-867.392c0-39.722 32.282-71.981 72.004-71.981h861.961c39.699 0 71.992 32.258 71.992 71.981v867.392c0 39.699-32.282 71.992-71.992 71.992zM933.804-20.16h-861.961c-19.033 0-34.494 15.437-34.494 34.482v867.357c0 19.021 15.461 34.482 34.494 34.482h861.961c4.933 0 9.605-1.076 13.852-2.957l-545.885-663.751-229.487 286.22c-6.471 8.115-18.252 9.404-26.367 2.91-8.091-6.471-9.381-18.264-2.886-26.355l243.942-304.261c3.513-4.424 8.848-6.991 14.491-7.015 0.047 0 0.071 0 0.13 0 5.595 0 10.93 2.52 14.467 6.814l552.225 671.487v-864.978c0-18.998-15.449-34.435-34.482-34.435z" />
<glyph unicode="&#xe90c;" glyph-name="cross" data-tags="cross" horiz-adv-x="1006" d="M858.46 803.614c-95.003 95.050-221.296 147.361-355.656 147.361-134.349 0-260.652-52.31-355.609-147.361-95.038-94.979-147.361-221.248-147.361-355.621 0-134.337 52.322-260.64 147.361-355.633 94.979-95.003 221.26-147.349 355.609-147.349 134.361 0 260.676 52.345 355.656 147.349 94.967 95.014 147.361 221.296 147.361 355.633 0 134.372-52.369 260.64-147.361 355.621zM833.831 116.991c-88.449-88.461-206.012-137.141-331.051-137.141s-242.589 48.702-330.992 137.141c-88.461 88.425-137.141 205.976-137.141 331.004 0 125.051 48.702 242.612 137.141 331.015 88.402 88.449 205.953 137.141 330.992 137.141s242.601-48.714 331.051-137.141c88.425-88.402 137.117-205.965 137.117-331.015 0.047-125.027-48.69-242.612-137.117-331.004zM695.354 665.126l-195.803-195.779-189.261 189.273c-6.802 6.802-17.839 6.802-24.641 0s-6.802-17.851 0-24.653l189.261-189.273-182.767-182.767c-6.802-6.802-6.802-17.851 0-24.653 3.395-3.383 7.855-5.11 12.314-5.11 4.448 0 8.908 1.703 12.303 5.11l182.767 182.779 189.261-189.273c3.395-3.371 7.867-5.099 12.338-5.099 4.436 0 8.884 1.703 12.291 5.099 6.802 6.802 6.802 17.851 0 24.653l-189.273 189.261 195.803 195.803c6.802 6.802 6.802 17.827 0 24.629-6.814 6.79-17.792 6.79-24.594 0z" />
<glyph unicode="&#xe90d;" glyph-name="document" data-tags="document" horiz-adv-x="1006" d="M921.998 837.355h-838.35c-46.205 0-83.81-37.605-83.81-83.798v-615.204c0-45.46 36.233-79.705 84.259-79.705h837.049c47.459 0 84.638 35.003 84.638 79.705v615.204c0.024 46.193-37.546 83.798-83.786 83.798zM33.692 138.34v615.215c0 27.526 22.416 49.955 49.966 49.955h303.338v-711.009h-302.865c-28.78-0.012-50.44 19.696-50.44 45.838zM971.953 138.34c0-26.142-21.848-45.85-50.783-45.85h-500.295v711.009h501.123c27.55 0 49.955-22.428 49.955-49.955v-615.204zM809.49 620.724h-243.091c-9.345 0-16.928-7.606-16.928-16.928 0-9.345 7.582-16.928 16.928-16.928h243.091c9.345 0 16.928 7.582 16.928 16.928 0 9.321-7.535 16.928-16.928 16.928zM809.49 466.649h-243.091c-9.345 0-16.928-7.582-16.928-16.928s7.582-16.939 16.928-16.939h243.091c9.345 0 16.928 7.594 16.928 16.939s-7.535 16.928-16.928 16.928zM809.49 312.561h-243.091c-9.345 0-16.928-7.582-16.928-16.928s7.582-16.928 16.928-16.928h243.091c9.345 0 16.928 7.582 16.928 16.928s-7.535 16.928-16.928 16.928z" />
<glyph unicode="&#xe90e;" glyph-name="dog" data-tags="dog" horiz-adv-x="1006" d="M391.835 526.458c-30.519 0-55.361-24.889-55.361-55.467s24.841-55.467 55.361-55.467c30.626 0 55.538 24.889 55.538 55.467s-24.9 55.467-55.538 55.467zM391.835 441.215c-16.348 0-29.656 13.355-29.656 29.762s13.308 29.762 29.656 29.762c16.454 0 29.821-13.355 29.821-29.762s-13.367-29.762-29.821-29.762zM613.775 526.458c-30.602 0-55.502-24.889-55.502-55.467s24.9-55.467 55.502-55.467c30.543 0 55.384 24.889 55.384 55.467s-24.841 55.467-55.384 55.467zM613.775 441.215c-16.419 0-29.798 13.355-29.798 29.762s13.379 29.762 29.798 29.762c16.372 0 29.679-13.355 29.679-29.762s-13.32-29.762-29.679-29.762zM929.64 601.644c-64.635 102.146-205.415 220.497-292.266 222.91-122.587 46.749-254.624 4.85-269.079 0-86.85-2.401-227.63-120.765-292.29-222.91-49.623-78.38-120.647-224.247-38.871-320.526 65.191-76.759 115.738-105.884 154.549-88.955 47.494 20.725 59.832 109.622 60.873 189.304 39.19-137.35 110.734-331.125 202.682-331.953h95.26c92.114 0.816 163.764 195.62 202.883 332.994 0.804-66.835 9.227-140.721 39.178-174.434 12.078-13.604 26.817-20.5 43.851-20.5 35.417 0 78.628 30.602 132.062 93.545 81.811 96.279 10.776 242.144-38.835 320.526zM181.416 215.738c-25.953-11.273-70.171 17.862-124.669 82.035-73.767 86.862 4.093 231.818 40.988 290.137 54.852 86.649 174.304 190.794 251.974 208.55l-128.549-277.289c-0.982-2.046-1.42-4.4-1.183-6.802v-0.024c0-0.083 0.012-0.166 0.012-0.272 12.196-102.749 12.503-274.048-38.575-296.335zM503.81 184.060c-0.355 0.035-0.651 0.225-1.005 0.225s-0.651-0.189-1.005-0.225c-35.523 0.71-89.275 39.19-89.275 90.268 0 14.432 36.268 29.88 90.292 29.88 54.012 0 90.292-15.461 90.292-29.88-0.024-51.090-53.764-89.57-89.298-90.268zM550.382 75.243h-34.707v84.188c49.245 7.689 103.14 57.454 103.14 114.886 0 41.035-62.494 55.585-115.998 55.585s-115.998-14.574-115.998-55.585c0-57.431 53.882-107.197 103.14-114.886v-84.188h-34.6c-95.213 0.852-182.301 311.595-209.141 436.842l134.12 289.32c24.64 7.512 140.071 38.705 244.912 0.166l134.132-289.427c-26.805-125.154-113.845-436.073-208.999-436.901zM948.898 297.775c-59.311-69.804-93.9-84.496-112.485-84.496-9.511 0-17.543 3.904-24.652 11.865-43.579 49.032-33.654 223.762-26.131 286.918 0.035 0.355-0.201 0.686-0.189 1.053 0.083 1.739-0.201 3.348-0.781 4.909-0.118 0.296-0.024 0.674-0.154 0.97l-128.584 277.466c77.682-17.756 197.123-121.901 251.963-208.55 36.954-58.318 114.815-203.274 41.012-290.137z" />
<glyph unicode="&#xe90f;" glyph-name="dollar" data-tags="dollar" horiz-adv-x="1006" d="M858.46 803.614c-95.003 95.038-221.296 147.361-355.656 147.361-134.349 0-260.652-52.31-355.609-147.361-95.038-94.979-147.361-221.248-147.361-355.597s52.322-260.64 147.361-355.644c94.979-95.014 221.26-147.338 355.609-147.338 134.361 0 260.676 52.322 355.656 147.338 94.991 95.026 147.361 221.296 147.361 355.644s-52.369 260.617-147.361 355.597zM833.831 116.979c-88.449-88.473-206.012-137.141-331.051-137.141-125.063 0-242.589 48.69-330.992 137.141-88.437 88.425-137.141 205.965-137.141 331.015 0 125.027 48.726 242.589 137.141 330.992 88.402 88.449 205.929 137.141 330.992 137.141 125.039 0 242.601-48.714 331.051-137.141 88.425-88.402 137.117-205.965 137.117-330.992 0.047-125.051-48.69-242.601-137.117-331.015zM647.527 559.18c0-9.617 7.796-17.413 17.425-17.413 9.617 0 17.413 7.807 17.413 17.413 0 66.718-71.273 121.715-162.124 128.020v44.988c0 9.617-7.807 17.425-17.425 17.425s-17.425-7.807-17.425-17.425v-44.988c-90.85-6.281-162.089-61.3-162.089-128.020 0-66.695 71.237-121.668 162.089-127.973v-187.511c-71.592 5.607-127.263 45.118-127.263 93.039 0 9.617-7.796 17.425-17.413 17.425s-17.413-7.796-17.413-17.425c0-66.718 71.237-121.691 162.089-127.985v-45.023c0-9.617 7.807-17.425 17.425-17.425s17.425 7.807 17.425 17.425v45.023c90.85 6.281 162.124 61.277 162.124 127.985 0 66.73-71.273 121.727-162.124 128.020v187.451c70.563-5.785 127.287-45.993 127.287-93.027zM358.106 559.18c0 47.010 56.687 87.242 127.263 93.027v-186.008c-70.575 5.785-127.263 45.969-127.263 92.98zM647.527 336.749c0-47.034-56.722-87.219-127.298-92.992v186.020c70.575-5.773 127.298-45.993 127.298-93.027z" />
<glyph unicode="&#xe910;" glyph-name="dot-menu" data-tags="dot-menu" horiz-adv-x="1006" d="M582.101 880.688c0-43.776-35.488-79.263-79.263-79.263s-79.263 35.488-79.263 79.263c0 43.776 35.488 79.263 79.263 79.263s79.263-35.488 79.263-79.263zM582.101 448.043c0-43.776-35.488-79.263-79.263-79.263s-79.263 35.488-79.263 79.263c0 43.776 35.488 79.263 79.263 79.263s79.263-35.488 79.263-79.263zM582.113 15.3c0-43.782-35.493-79.275-79.275-79.275s-79.275 35.493-79.275 79.275c0 43.782 35.493 79.275 79.275 79.275s79.275-35.493 79.275-79.275z" />
<glyph unicode="&#xe911;" glyph-name="edit" data-tags="edit" horiz-adv-x="1006" d="M1002.165 737.984c0 23.957-9.336 46.505-26.294 63.44l-137.145 137.156c-12.977 12.977-34.48 21.374-54.738 21.374-15.032 0-27.692-4.662-36.511-13.458-1.151-1.127-37.474-37.204-90.626-90.051-0.047-0.035-0.082-0.035-0.129-0.082-0.047-0.035-0.047-0.082-0.082-0.129-16.383-16.242-34.327-34.104-53.293-53.035h-538.137c-34.045 0-61.725-27.68-61.725-61.725v-743.724c0-34.033 27.68-61.749 61.725-61.749h739.109c34.045 0 61.725 27.703 61.725 61.749v566.851l109.829 109.97c16.958 16.934 26.294 39.494 26.294 63.416zM502.524 246.164c-9.148-9.148-19.095-17.169-29.559-24.415l-59.623 123.663 367.582 362.097 90.626-91.906-369.026-369.437zM240.179 362.875c2.983 11.896 7.551 23.217 13.118 34.022l128.537-60.269 63.299-131.273c-5.543-2.678-11.133-5.296-16.899-7.516-78.296-30.076-197.261-74.244-197.226-74.267-10.44-3.241-25.273 4.005-34.233 16.124-6.201 8.397-8.491 17.299-6.072 25.249l49.476 197.93zM390.535 368.077l-119.376 55.912c3.053 3.699 6.013 7.481 9.395 10.886 82.030 83.251 269.673 270.178 387.393 387.252l90.403-91.695-367.816-362.356zM833.888-2.217c0-16.312-13.259-29.594-29.571-29.594h-739.109c-16.312 0-29.571 13.282-29.571 29.594v743.701c0 16.336 13.247 29.571 29.571 29.571h505.807c-111.637-111.191-247.019-246.221-313.396-313.607-8.808-8.96-16.347-18.966-23.159-29.395-0.904-1.092-1.891-2.090-2.501-3.406-0.117-0.247-0.094-0.481-0.176-0.716-10.158-16.5-18.085-34.327-22.806-53.27l-49.23-197.026c-5.226-16.958-1.163-36.3 11.168-52.999 13.693-18.496 34.562-29.994 54.585-29.994 5.132 0 10.182 0.752 15.854 2.537 0 0 119.705 44.45 198.424 74.667 32.272 12.39 61.032 31.086 85.494 55.56l308.64 309.016v-534.626h-0.023zM953.123 697.327l-58.883-58.942-101.69 103.123c0 0.012-0.023 0.035-0.023 0.035l-0.047 0.023-101.761 103.229c46.904 46.646 78.354 77.873 79.399 78.918 2.642 2.595 7.669 4.11 13.869 4.11 11.603 0 25.061-5.050 32.002-11.955l137.145-137.156c10.851-10.886 16.841-25.331 16.841-40.68-0.012-15.373-6.001-29.864-16.852-40.704z" />
<glyph unicode="&#xe912;" glyph-name="envelope" data-tags="envelope" horiz-adv-x="1006" d="M913.623 893.105h-821.6c-50.83 0-92.185-41.355-92.185-92.185v-705.852c0-50.83 41.355-92.185 92.185-92.185h821.588c50.854 0 92.185 41.355 92.185 92.185v705.852c0.012 50.83-41.343 92.185-92.173 92.185zM92.022 859.25h821.588c32.164 0 58.33-26.166 58.33-58.33v-153.307l-437.339-244.605c-22.168-13.935-39.498-13.828-64.327 0.473l-436.582 244.132v153.307c0 32.164 26.19 58.33 58.33 58.33zM913.623 36.726h-821.6c-32.164 0-58.33 26.142-58.33 58.33v513.78l419.855-234.799c17.815-10.268 34.352-15.39 50.463-15.39 16.123 0 31.797 5.122 47.896 15.283l420.021 234.905v-513.792c0.024-32.164-26.119-58.318-58.306-58.318z" />
<glyph unicode="&#xe913;" glyph-name="expand" data-tags="expand" horiz-adv-x="1006" d="M1005.822-29.897l-0.059 279.934c0 10.942-8.872 19.826-19.814 19.826s-19.814-8.884-19.814-19.826l0.047-236.071-428.893 428.845 428.857 428.881v-225.732c0-10.942 8.872-19.814 19.814-19.814 10.919 0 19.814 8.872 19.814 19.814v279.934c0 6.837-3.691 12.575-8.955 16.124-3.561 5.24-9.31 8.931-16.124 8.931h-279.923c-10.942 0-19.814-8.872-19.814-19.814s8.872-19.814 19.814-19.814h249.852c-0.84-0.615-1.881-0.982-2.685-1.774l-438.664-438.687-440.497 440.497h236.071c10.942 0 19.814 8.872 19.814 19.814s-8.872 19.814-19.814 19.814h-279.923c-6.849 0-12.575-3.714-16.124-8.955-5.252-3.584-8.955-9.31-8.955-16.124v-279.911c0-10.942 8.872-19.814 19.814-19.814s19.814 8.872 19.814 19.814v238.602l441.787-441.775-441.787-441.787v249c0 10.942-8.872 19.826-19.814 19.826s-19.814-8.884-19.814-19.826v-279.958c0-6.837 3.703-12.61 8.99-16.147 3.561-5.217 9.262-8.884 16.064-8.884h279.911c10.942 0 19.814 8.884 19.814 19.826s-8.872 19.814-19.814 19.814h-225.673l430.111 430.111 430.158-430.17-238.638 0.047c-10.942 0-19.814-8.872-19.814-19.814s8.872-19.826 19.814-19.826l279.911-0.047c6.873 0 12.587 3.691 16.124 8.955 5.3 3.561 9.014 9.322 9.014 16.159z" />
<glyph unicode="&#xe914;" glyph-name="eye" data-tags="eye" horiz-adv-x="1006" d="M999.718 461.658l-242.281 218.835c-68.114 61.49-158.528 95.369-254.631 95.369-96.091 0-186.505-33.88-254.607-95.369l-242.269-218.835c-3.868-3.502-6.080-8.47-6.080-13.687s2.212-10.185 6.080-13.71l242.269-218.776c68.126-61.49 158.528-95.381 254.607-95.381 96.103 0 186.564 33.88 254.655 95.381l242.257 218.776c3.892 3.525 6.104 8.494 6.104 13.71s-2.2 10.185-6.104 13.687zM732.76 242.857c-61.36-55.374-142.984-85.858-229.978-85.858-86.935 0-168.583 30.485-229.907 85.858l-227.104 205.125 227.068 205.137c61.324 55.362 142.961 85.858 229.931 85.858 86.959 0 168.607-30.496 229.955-85.858l227.092-205.137-227.057-205.125zM618.64 555.134c-31.064 28.048-72.195 43.462-115.859 43.462-43.639 0-84.782-15.414-115.824-43.462-31.573-28.474-48.95-66.529-48.95-107.129s17.378-78.654 48.95-107.153c31.029-28.048 72.184-43.485 115.824-43.485 43.663 0 84.817 15.437 115.859 43.485 31.549 28.497 48.939 66.553 48.939 107.153s-17.354 78.654-48.939 107.129zM593.964 368.215c-24.25-21.92-56.64-33.974-91.158-33.974-34.495 0-66.872 12.066-91.111 33.974-23.718 21.423-36.79 49.755-36.79 79.79s13.060 58.367 36.79 79.79c24.239 21.873 56.628 33.927 91.111 33.927 34.518 0 66.908-12.054 91.158-33.927 23.718-21.423 36.778-49.755 36.778-79.79s-13.107-58.379-36.778-79.79z" />
<glyph unicode="&#xe915;" glyph-name="globe" data-tags="globe" horiz-adv-x="1006" d="M1005.798 448.007c0 119.302-41.912 228.902-111.589 315.211-0.97 5.181-3.998 9.901-9.097 12.456-0.639 0.343-1.349 0.319-2.011 0.544-92.306 106.81-228.405 174.758-380.273 174.758-134.384 0-260.7-52.334-355.68-147.326-8.813-8.813-16.845-18.099-24.889-27.456-0.556-0.201-1.195-0.177-1.739-0.461-4.909-2.461-7.938-6.944-9.061-11.924-72.266-89.23-111.648-199.47-111.624-315.862-0.024-116.368 39.38-226.619 111.624-315.838 1.147-4.957 4.152-9.452 9.061-11.9 0.544-0.272 1.159-0.248 1.703-0.485 8.068-9.31 16.135-18.667 24.937-27.468 95.014-94.979 221.307-147.278 355.656-147.278h0.13c151.892 0 287.955 67.972 380.25 174.747 0.615 0.248 1.301 0.189 1.905 0.485 5.134 2.567 8.151 7.311 9.168 12.527 69.617 86.343 111.53 195.945 111.53 315.27zM744.259 265.204c14.184 49.518 23.446 104.586 25.031 165.165h200.417c-3.679-98.174-37.665-188.54-92.968-262.261-19.814 25.552-60.39 65.831-132.48 97.098zM526.961-18.564c-2.177-0.118-4.353-0.248-6.518-0.319v292.688c73.899-1.703 133.059-13.426 179.845-29.822-53.753-154.14-153.241-245.274-173.327-262.545zM478.731-18.612c-20.027 17.153-119.728 108.407-173.504 262.841 46.762 16.23 105.97 27.882 179.975 29.562v-292.723c-2.129 0.106-4.318 0.225-6.471 0.319zM128.694 167.941c-56.983 75.815-89.254 166.49-92.779 262.45h200.405c1.573-60.579 10.871-115.646 25.055-165.165-72.266-31.36-112.855-71.77-132.681-97.287zM128.718 728.024c19.803-25.481 60.378-65.938 132.657-97.263-14.184-49.518-23.482-104.574-25.055-165.165h-200.405c3.525 95.973 35.82 186.659 92.802 262.427zM478.707 914.6c2.177 0.095 4.33 0.237 6.494 0.319v-292.723c-73.875 1.668-133.083 13.415-179.892 29.787 53.789 154.246 153.347 245.404 173.398 262.616zM526.997 914.564c20.157-17.283 119.574-108.43 173.28-262.581-46.786-16.348-105.97-28.071-179.845-29.787v292.664c2.212-0.071 4.377-0.213 6.565-0.296zM876.737 727.858c55.315-73.71 89.301-164.065 92.968-262.237h-200.417c-1.585 60.591-10.895 115.658-25.031 165.165 72.065 31.23 112.665 71.58 132.48 97.074zM734.038 465.621h-213.595v121.36c77.72 1.68 140.358 13.758 190.35 30.934 13.166-45.922 21.695-96.755 23.245-152.294zM485.226 586.979v-121.36h-213.654c1.55 55.539 10.126 106.372 23.233 152.306 50.039-17.188 112.665-29.266 190.421-30.946zM271.572 430.391h213.654v-121.36c-77.755-1.68-140.382-13.758-190.397-30.934-13.131 45.91-21.707 96.731-23.257 152.294zM520.443 309.032v121.36h213.63c-1.561-55.539-10.102-106.36-23.233-152.294-50.039 17.176-112.677 29.231-190.397 30.934zM853.8 756.225c-14.124-19.495-49.861-59.561-120.177-91.087-40.658 117.172-106.242 199.092-148.556 242.932 106.372-18.963 200.192-73.887 268.732-151.845zM420.696 908.236c-42.29-43.828-108.005-125.796-148.722-243.121-70.516 31.62-106.218 71.829-120.26 91.229 6.648 7.571 13.154 15.225 20.311 22.405 68.67 68.635 155.027 112.973 248.669 129.487zM151.621 139.716c13.876 19.471 49.412 59.845 120.26 91.454 40.717-117.492 106.526-199.565 148.864-243.381-93.666 16.467-180.046 60.792-248.716 129.451-7.181 7.157-13.71 14.858-20.406 22.476zM585.080-12.082c42.279 43.816 107.898 125.737 148.556 242.944 70.409-31.549 106.147-71.663 120.177-91.087-68.552-77.98-162.397-132.917-268.732-151.856z" />
<glyph unicode="&#xe916;" glyph-name="grid" data-tags="grid" horiz-adv-x="1006" d="M1005.81 429.054c0 1.632-0.544 3.17-0.982 4.684v448.707c0 39.676-32.259 71.923-71.923 71.923h-861.145c-39.652 0-71.923-32.247-71.923-71.923v-866.564c0-39.688 32.283-71.971 71.923-71.971h422.576c2.591-1.36 5.394-2.319 8.517-2.319s5.915 0.958 8.505 2.319h421.618c39.676 0 71.923 32.283 71.923 71.971v408.439c0.367 1.561 0.911 3.052 0.911 4.732zM967.364 882.447v-434.654h-445.797v469.101h411.397c18.975 0 34.4-15.449 34.4-34.447zM71.759 916.895h412.343v-469.101h-446.802v434.654c0 18.998 15.461 34.447 34.459 34.447zM37.299 15.907v394.422h446.802v-428.916h-412.343c-18.998 0-34.459 15.437-34.459 34.495zM932.905-18.588h-411.338v428.916h445.844v-394.422c-0.047-19.057-15.473-34.495-34.507-34.495z" />
<glyph unicode="&#xe917;" glyph-name="hamburger" data-tags="hamburger" horiz-adv-x="1006" d="M20.773 831.875h964.098c11.569 0 20.95 9.381 20.95 20.938 0 11.569-9.381 20.938-20.95 20.938h-964.098c-11.569 0-20.938-9.369-20.938-20.938 0-11.557 9.369-20.938 20.938-20.938zM984.872 333.993h-964.098c-11.569 0-20.938-9.369-20.938-20.938s9.369-20.95 20.938-20.95h964.098c11.569 0 20.95 9.381 20.95 20.95s-9.393 20.938-20.95 20.938zM984.872 603.86h-964.098c-11.569 0-20.938-9.369-20.938-20.938 0-11.557 9.369-20.938 20.938-20.938h964.098c11.569 0 20.95 9.381 20.95 20.938-0.012 11.569-9.393 20.938-20.95 20.938zM984.872 64.113h-964.098c-11.569 0-20.938-9.381-20.938-20.95 0-11.557 9.369-20.938 20.938-20.938h964.098c11.569 0 20.95 9.381 20.95 20.938-0.012 11.569-9.393 20.95-20.95 20.95z" />
<glyph unicode="&#xe918;" glyph-name="happy" data-tags="happy" horiz-adv-x="1006" d="M502.804 950.952c-277.356 0-502.97-225.602-502.97-502.958s225.613-502.982 502.97-502.982c277.391 0 503.018 225.625 503.018 502.982s-225.625 502.958-503.018 502.958zM502.804-19.475c-257.766 0-467.433 209.715-467.433 467.445s209.703 467.421 467.433 467.421c257.778 0 467.48-209.691 467.48-467.421s-209.703-467.445-467.48-467.445zM381.327 592.989c0-37.886-30.713-68.599-68.599-68.599s-68.599 30.713-68.599 68.599c0 37.886 30.713 68.599 68.599 68.599s68.599-30.713 68.599-68.599zM761.459 592.989c0-37.886-30.713-68.599-68.599-68.599s-68.599 30.713-68.599 68.599c0 37.886 30.713 68.599 68.599 68.599s68.599-30.713 68.599-68.599zM786.951 346.023h-568.257c-5.95 0-11.51-2.981-14.811-7.938-3.277-4.992-3.88-11.262-1.561-16.739 51.103-121.064 169.057-199.305 300.472-199.305 131.462 0 249.402 78.228 300.519 199.305 2.319 5.477 1.727 11.747-1.573 16.739-3.289 4.957-8.872 7.938-14.787 7.938zM502.804 157.578c-107.91 0-205.622 59.195-255.944 152.909h511.913c-50.323-93.713-148.036-152.909-255.968-152.909z" />
<glyph unicode="&#xe919;" glyph-name="hat" data-tags="hat" horiz-adv-x="1006" d="M955.688 185.614v386.496c0 1.408-0.319 2.744-0.828 4.010-0.13 0.331-0.248 0.639-0.39 0.97-0.509 1.065-1.183 2.094-2.011 2.957-0.083 0.095-0.13 0.237-0.225 0.319-0.781 0.769-1.68 1.467-2.685 1.987l-466.357 248.906c-3.419 1.822-7.5 1.822-10.907 0l-466.345-248.906c-3.762-2.023-6.104-5.938-6.104-10.221s2.342-8.198 6.104-10.209l78.855-42.101v-166.3c0-3.466 1.561-6.755 4.211-8.943 2.685-2.2 6.187-3.076 9.594-2.413 1.692 0.331 173.859 31.147 370.076-214.375 0.142-0.189 0.319-0.248 0.461-0.379 0.745-0.84 1.656-1.467 2.626-2.082 0.426-0.248 0.757-0.603 1.207-0.793 1.455-0.674 3.040-1.088 4.755-1.088 0.308 0 0.591 0.024 0.899 0.035 0.402 0.035 0.733 0.308 1.136 0.379 1.218 0.225 2.354 0.568 3.431 1.124 0.497 0.284 0.958 0.615 1.408 0.97 0.97 0.722 1.739 1.561 2.437 2.543 0.213 0.296 0.568 0.45 0.757 0.781 1.337 2.366 138.596 236.887 363.322 212.719 3.407-0.367 6.542 0.71 8.967 2.91 2.437 2.188 3.845 5.311 3.845 8.612v162.669l68.611 36.624v-367.214c-28.509-5.453-50.133-30.473-50.133-60.532 0-34.033 27.669-61.714 61.714-61.714 34.033 0 61.714 27.681 61.714 61.714-0.012 30.059-21.636 55.078-50.145 60.543zM107.945 366.465v140.985l358.223-191.213v-149.183c-166.667 194.715-313.46 202.534-358.223 199.411zM840.787 366.133c-180.034 12.066-303.938-127.961-351.469-193.118v143.221l351.469 187.593v-137.697zM477.749 336.311l-441.775 235.799 441.775 235.822 441.787-235.822-441.787-235.799zM944.107 86.495c-21.281 0-38.576 17.283-38.576 38.576 0 21.281 17.295 38.576 38.576 38.576 21.269 0 38.576-17.295 38.576-38.576 0-21.293-17.307-38.576-38.576-38.576z" />
<glyph unicode="&#xe91a;" glyph-name="heal" data-tags="heal" horiz-adv-x="1006" d="M958.551 252.172h-46.134c0.745 1.526 1.254 3.194 1.254 5.016v80.462c0 6.364-5.169 11.522-11.522 11.522-27.302 0-107.73 26.639-162.889 63.44-1.893 1.266-4.152 1.94-6.4 1.94-63.049 0-139.16-17.756-170.826-56.236-5.146 5.974-10.303 12.018-15.626 18.241-51.918 60.979-110.758 130.099-210.738 182.431-19.613 10.28-46.808 23.647-78.605 38.693-12.965 6.092-15.271 18.489-13.32 27.207 2.058 9.168 9.333 18.927 23.658 18.927 26.071 0 47.281 21.21 47.281 47.281v20.642c0 26.071-21.21 47.281-47.281 47.281h-220.284c-26.071 0-47.281-21.21-47.281-47.281v-28.343c0-34.932 5.643-69.295 15.898-96.728 1.526-4.081 3.809-7.736 6.411-11.19 0.461-1.692 1.195-3.312 2.46-4.696 37.487-41.177 60.707-250.638 60.707-421.109 0-6.364 5.158-11.533 11.522-11.533h85.454c6.364 0 11.522 5.169 11.522 11.533 0 160.772 57.253 222.354 143.182 265.33 1.479 0.733 2.709 1.751 3.691 2.934 66.279-45.625 110.403-99.544 150.232-148.244 58.223-71.223 108.498-132.725 204.196-132.725h263.401c26.071 0 47.269 21.21 47.269 47.269v20.642c0.035 26.083-21.174 47.293-47.234 47.293zM729.43 391.497c51.114-33.264 122.622-59.619 161.209-64.516v-69.78c0-1.822 0.485-3.501 1.254-5.016h-154.017c-70.182 0-114.224 36.954-160.452 88.577 22.677 32.376 92.741 50.073 152.006 50.735zM170.888 161.194h-62.576c-0.816 120.836-14.313 306.496-47.541 391.004 54-22.688 166.142-70.585 228.044-102.939 10.694-5.595 20.808-11.462 30.567-17.46-76.381-39.782-145.5-102.111-148.493-270.605zM982.789 184.261c0-13.367-10.859-24.238-24.238-24.238h-263.401c-84.791 0-129.602 54.84-186.37 124.279-50.794 62.115-108.368 132.524-209.259 185.364-71.602 37.439-208.833 95.071-249.159 111.858-6.175 2.579-10.812 7.263-13.048 13.19-9.179 24.581-14.432 56.875-14.432 88.66v28.343c0 13.355 10.871 24.238 24.238 24.238h220.308c13.355 0 24.238-10.871 24.238-24.238v-20.642c0-13.367-10.871-24.238-24.238-24.238-22.665 0-41.189-14.834-46.122-36.931-4.956-22.073 5.465-43.437 25.953-53.089 31.525-14.905 58.412-28.118 77.741-38.244 96.041-50.274 153.319-117.571 203.877-176.954 60.542-71.093 112.84-132.476 209.011-132.476h220.663c13.343 0 24.238-10.883 24.238-24.25v-20.63z" />
<glyph unicode="&#xe91b;" glyph-name="heart" data-tags="heart" horiz-adv-x="1006" d="M753.817 888.256c-114.854 0-213.062-64.187-250.976-154.080-37.925 89.892-136.111 154.080-250.988 154.080-157.759 0-252.017-136.123-252.017-267.703 0-319.635 474.401-598.801 494.607-610.559 2.579-1.479 5.501-2.259 8.399-2.259s5.785 0.757 8.375 2.259c20.193 11.735 494.595 290.925 494.595 610.559 0 131.569-94.234 267.703-251.993 267.703zM502.863 43.978c-63.927 39.085-469.574 298.26-469.574 576.573 0 115.15 81.754 234.261 218.587 234.261 112.665 0 234.273-77.578 234.273-202.889 0-9.227 7.488-16.727 16.727-16.727 9.227 0 16.739 7.488 16.739 16.727 0 125.299 121.573 202.889 234.261 202.889 136.786 0 218.539-119.112 218.539-234.261-0.047-278.172-405.66-537.501-469.551-576.573z" />
<glyph unicode="&#xe91c;" glyph-name="hearts" data-tags="hearts" horiz-adv-x="1006" d="M839.723 619.321c-74.656 0-138.619-41.202-164.348-99.192-8.979 20.228-22.653 38.328-39.747 53.422 16.408 36.068 25.126 71.521 25.126 105.473 0 86.71-62.152 176.391-166.123 176.391-74.668 0-138.619-41.178-164.337-99.203-25.705 58.012-89.691 99.203-164.348 99.203-103.994 0-166.123-89.691-166.123-176.391 0-209.951 311.166-393.002 324.403-400.703 1.857-1.088 3.963-1.656 6.057-1.656 2.082 0 4.176 0.544 6.057 1.656 0.875 0.485 19.53 11.392 47.791 30.709 84.037-148.509 274.871-260.83 285.175-266.815 1.881-1.076 3.975-1.644 6.057-1.644 2.094 0 4.188 0.556 6.069 1.644 13.237 7.701 324.367 190.776 324.367 400.703 0.012 86.71-62.105 176.403-166.076 176.403zM330.295 302.798c-43.509 26.687-306.339 195.354-306.339 376.216 0 74.833 53.126 152.282 142.003 152.282 73.236 0 152.282-50.37 152.282-131.735 0-6.66 5.406-12.066 12.066-12.066s12.066 5.406 12.066 12.066c0 81.375 79.045 131.735 152.271 131.735 88.887 0 142.003-77.424 142.003-152.282 0-28.888-7.251-59.289-20.737-90.413-29.349 19.223-65.595 30.709-104.846 30.709-103.994 0-166.123-89.691-166.123-176.403 0-38.659 10.611-76.419 27.906-112.31-19.306-13.273-34.66-22.985-42.551-27.799zM675.374 66.739c-43.568 26.687-306.339 195.33-306.339 376.18 0 74.845 53.114 152.294 142.003 152.294 73.225 0 152.282-50.37 152.282-131.711 0-6.66 5.394-12.054 12.054-12.054s12.066 5.406 12.066 12.054c0 81.351 79.045 131.711 152.282 131.711 88.863 0 141.967-77.424 141.967-152.294 0-180.732-262.782-349.481-306.315-376.18z" />
<glyph unicode="&#xe91d;" glyph-name="home" data-tags="home" horiz-adv-x="1006" d="M943.6 545.325l-397.202 397.17c-23.272 23.315-63.858 23.315-87.184 0l-397.127-397.17c-17.951-17.94-23.088-43.694-13.363-67.161 9.736-23.466 31.551-38.060 56.949-38.060 14.874 0 26.974-12.089 26.974-26.953v-415.498c0-34.012 27.644-61.645 61.623-61.645h113.047c34.012 0 61.666 27.633 61.666 61.645v180.24c0 14.863 12.079 26.953 26.931 26.953h180.251c14.885 0 26.974-12.089 26.974-26.953v-180.24c0-34.012 27.633-61.645 61.623-61.645h113.069c33.99 0 61.645 27.633 61.645 61.645v415.498c0 14.863 12.068 26.953 26.931 26.953h33.613c25.409 0 47.213 14.594 56.96 38.060 9.671 23.488 4.566 49.221-13.385 67.161zM924.905 491.441c-4.328-10.416-13.644-16.644-24.891-16.644h-33.613c-34.023 0-61.677-27.654-61.677-61.645v-415.498c0-14.885-12.057-26.953-26.92-26.953h-113.037c-14.885 0-26.974 12.068-26.974 26.953v180.24c0 34.001-27.633 61.656-61.623 61.656h-180.284c-33.99 0-61.623-27.654-61.623-61.656v-180.24c0-14.885-12.1-26.953-26.974-26.953h-113.037c-14.853 0-26.931 12.068-26.931 26.953v415.498c0 33.99-27.665 61.645-61.666 61.645-11.269 0-20.563 6.217-24.87 16.644-4.328 10.416-2.148 21.372 5.829 29.349l397.148 397.17c10.179 10.146 27.924 10.19 38.092 0l397.181-397.17c7.998-7.977 10.168-18.933 5.872-29.349z" />
<glyph unicode="&#xe91e;" glyph-name="left-arrow" data-tags="left-arrow" horiz-adv-x="1006" d="M940.144 666.469h-363.442c-18.122 0-32.873 14.739-32.873 32.861v161.446c0 36.209-29.585 65.723-65.959 65.723-17.247 0-33.583-6.873-46.039-19.317l-412.782-412.805c-25.61-25.586-25.61-67.225 0-92.812l412.758-412.746c12.444-12.432 28.804-19.317 46.027-19.317 36.375 0 65.983 29.466 65.983 65.699v161.434c0 18.122 14.751 32.873 32.873 32.873h363.454c36.197 0 65.64 29.431 65.64 65.628v305.68c0 36.209-29.443 65.652-65.64 65.652zM973.041 295.113c0-18.122-14.763-32.861-32.885-32.861h-363.454c-36.174 0-65.628-29.466-65.628-65.64v-161.434c0-20.595-16.88-32.944-33.216-32.944-6.009 0-14.857 1.692-22.889 9.724l-412.77 412.77c-12.811 12.811-12.811 33.678 0 46.489l412.782 412.782c8.032 8.044 16.857 9.724 22.889 9.724 16.336 0 33.216-12.338 33.216-32.968v-161.434c0-36.185 29.455-65.616 65.628-65.616h363.454c18.122 0 32.885-14.763 32.885-32.909v-305.68z" />
<glyph unicode="&#xe91f;" glyph-name="phone" data-tags="phone" horiz-adv-x="1006" d="M858.484 803.638c-95.003 95.050-221.307 147.373-355.668 147.373-134.349 0-260.664-52.322-355.644-147.373-95.014-94.979-147.338-221.26-147.338-355.633 0-134.349 52.322-260.652 147.338-355.656 94.979-95.003 221.296-147.349 355.644-147.349 134.361 0 260.688 52.345 355.668 147.349 94.979 95.026 147.326 221.307 147.326 355.656 0 134.361-52.322 260.64-147.326 355.633zM833.855 116.967c-88.425-88.449-205.976-137.141-331.039-137.141-125.051 0-242.601 48.714-331.027 137.141-88.437 88.414-137.141 206-137.141 331.027 0 125.051 48.702 242.624 137.141 331.027 88.425 88.449 205.988 137.141 331.027 137.141 125.063 0 242.612-48.714 331.039-137.141 88.449-88.414 137.117-205.976 137.117-331.027s-48.678-242.624-137.117-331.027zM718.955 352.305l-20.347 11.179c-12.492 6.897-24.96 13.793-36.896 20.796-1.834 1.147-3.762 2.52-5.796 3.975-8.659 6.128-19.471 13.77-32.661 13.77-18.691 0-33.477-18.312-49.163-37.701-5.631-6.968-14.704-18.17-19.507-21.683-3.679 1.242-10.15 5.217-13.474 7.275l-5.087 3.064c-57.006 31.597-96.542 71.131-128.363 128.481l-2.875 4.72c-2.070 3.407-6.080 9.937-7.299 13.474 3.478 4.791 14.74 13.9 21.695 19.53 19.389 15.698 37.712 30.508 37.712 49.163 0 13.202-7.642 23.99-13.77 32.661-1.443 2.023-2.839 3.963-3.809 5.56-7.181 12.161-14.053 24.653-20.974 37.156l-11.167 20.323c-7.027 14.396-14.361 27.646-25.268 31.254-5.548 2.366-10.658 2.366-13.699 2.366-13.935 0-39.712-5.737-52.736-11.64-22.097-9.475-34.862-32.567-43.402-47.945-12.752-23.47-18.927-46.241-18.927-69.699 0-29.207 9.724-54.995 19.152-79.873l4.649-12.433c8.221-22.866 17.697-42.823 28.935-61.040 36.293-58.733 105.284-127.724 164.029-164.029 18.158-11.203 38.115-20.69 60.957-28.959l12.598-4.684c24.889-9.381 50.618-19.093 79.814-19.093 23.363 0 46.147 6.187 69.818 18.998 15.272 8.494 38.328 21.305 47.673 42.988 6.033 13.285 11.794 39.096 11.794 53.091 0 3.040 0 8.139-1.905 12.492-4.117 12.137-17.318 19.46-31.703 26.463zM708.853 274.36c-4.708-11.096-21.565-20.441-32.519-26.534-18.549-10.055-35.406-14.716-53.067-14.716-22.819 0-44.526 8.174-67.499 16.845l-13.024 4.862c-20.583 7.453-38.434 15.922-54.522 25.836-53.801 33.253-119.467 98.896-152.696 152.72-9.96 16.076-18.395 33.951-25.824 54.558l-4.803 12.882c-8.707 22.997-16.904 44.739-16.904 67.582 0 17.744 4.673 34.566 14.621 52.937 6.175 11.132 15.497 27.918 26.948 32.839 8.517 3.856 27.681 8.233 38.6 8.576 2.685-3.632 6.388-11.203 7.736-13.994l11.971-21.837c7.039-12.764 14.089-25.54 21.601-38.257 1.479-2.425 3.324-5.028 5.252-7.725 2.472-3.49 7.133-10.079 7.559-10.907-1.893-5.039-16.337-16.715-24.984-23.718-18.762-15.154-34.968-28.261-34.968-45.2 0-12.279 7.098-23.813 12.788-33.087l2.283-3.738c34.968-63.028 78.666-106.774 141.376-141.541l4.069-2.449c9.251-5.678 20.82-12.788 33.111-12.788 16.952 0 30.071 16.195 45.224 34.968 6.979 8.636 18.679 23.068 21.967 24.747 2.52-0.225 9.073-4.874 12.61-7.346 2.65-1.905 5.276-3.714 8.020-5.394 12.456-7.322 25.232-14.385 37.996-21.435l21.861-12.007c2.792-1.384 10.457-5.134 14.030-7.796-0.012-9.286-4.602-29.668-8.813-38.884z" />
<glyph unicode="&#xe920;" glyph-name="play" data-tags="play" horiz-adv-x="1006" d="M909.398 507.54l-742.106 442.561c-10.803 6.473-23.066 9.891-35.432 9.891-38.27 0-69.394-31.134-69.394-69.415v-885.162c0-38.301 31.176-69.404 69.425-69.404 12.346 0 24.599 3.387 35.432 9.839l742.137 442.634c21.15 12.636 33.796 34.894 33.796 59.544-0.010 24.63-12.688 46.846-33.858 59.513zM889.947 421.096l-742.158-442.561c-4.982-2.973-10.337-4.485-15.93-4.485-15.070 0-31.341 11.994-31.341 31.321v885.214c0 19.389 16.271 31.331 31.321 31.331 5.593 0 10.948-1.512 15.95-4.516l742.106-442.582c9.529-5.707 15.256-15.764 15.256-26.877-0.010-11.124-5.686-21.139-15.205-26.846z" />
<glyph unicode="&#xe921;" glyph-name="recyclebin" data-tags="recyclebin" horiz-adv-x="1006" d="M921.444 838.317h-281.469c-8.223 68.425-66.587 121.635-137.178 121.635-70.579 0-128.901-53.209-137.145-121.635h-281.447c-24.157 0-43.833-19.643-43.833-43.844v-124.256c0-24.179 19.654-43.855 43.833-43.855h19.556c-0.261-1.903-0.576-3.785-0.576-5.765v-640.738c0-24.179 19.654-43.866 43.855-43.866h711.61c24.157 0 43.822 19.676 43.822 43.866v640.76c0 1.958-0.348 3.839-0.576 5.776h19.545c24.179 0 43.876 19.643 43.876 43.844v124.267c-0.054 24.168-19.698 43.811-43.876 43.811zM502.798 921.905c49.587 0 90.549-36.252 98.576-83.587h-197.119c8.005 47.368 48.967 83.587 98.544 83.587zM864.417 620.619v-640.727c0-3.198-2.6-5.83-5.786-5.83h-711.643c-3.198 0-5.808 2.632-5.808 5.83v640.727c0 3.176 2.61 5.776 5.808 5.776h711.654c3.198-0.011 5.776-2.61 5.776-5.776zM927.22 670.217c0-3.198-2.6-5.797-5.819-5.797h-837.226c-3.176 0-5.786 2.6-5.786 5.797v124.256c0 3.198 2.61 5.797 5.786 5.797h837.226c3.219 0 5.819-2.6 5.819-5.797v-124.256z" />
<glyph unicode="&#xe922;" glyph-name="recyclebin-empty" data-tags="recyclebin-empty" horiz-adv-x="1006" d="M489.605 297.874l-130.956-130.956c-7.429-7.429-7.429-19.469 0-26.931 3.698-3.687 8.603-5.58 13.454-5.58 4.862 0 9.735 1.86 13.433 5.58l130.967 130.956 135.731-135.753c3.698-3.72 8.603-5.58 13.454-5.58 4.829 0 9.713 1.827 13.422 5.58 7.44 7.429 7.44 19.469 0 26.898l-135.731 135.785 140.571 140.56c7.429 7.44 7.429 19.469 0 26.909-7.44 7.429-19.502 7.429-26.941 0l-140.56-140.56-135.753 135.775c-7.429 7.429-19.48 7.429-26.92 0-7.429-7.44-7.429-19.502 0-26.931l135.829-135.753zM921.444 838.317h-281.469c-8.223 68.425-66.587 121.635-137.178 121.635-70.579 0-128.901-53.209-137.145-121.635h-281.447c-24.157 0-43.833-19.643-43.833-43.844v-124.256c0-24.179 19.654-43.855 43.833-43.855h19.556c-0.261-1.903-0.576-3.785-0.576-5.765v-640.738c0-24.179 19.654-43.866 43.855-43.866h711.61c24.157 0 43.822 19.676 43.822 43.866v640.76c0 1.958-0.348 3.839-0.576 5.776h19.545c24.179 0 43.876 19.643 43.876 43.844v124.267c-0.054 24.168-19.698 43.811-43.876 43.811zM502.798 921.905c49.587 0 90.549-36.252 98.576-83.587h-197.119c8.005 47.368 48.967 83.587 98.544 83.587zM864.417 620.619v-640.727c0-3.198-2.6-5.83-5.786-5.83h-711.643c-3.198 0-5.808 2.632-5.808 5.83v640.727c0 3.176 2.61 5.776 5.808 5.776h711.654c3.198-0.011 5.776-2.61 5.776-5.776zM927.22 670.217c0-3.198-2.6-5.797-5.819-5.797h-837.226c-3.176 0-5.786 2.6-5.786 5.797v124.256c0 3.198 2.61 5.797 5.786 5.797h837.226c3.219 0 5.819-2.6 5.819-5.797v-124.256z" />
<glyph unicode="&#xe923;" glyph-name="search" data-tags="search" horiz-adv-x="1006" d="M1000.936-28.040l-317.778 317.766c67.925 73.059 105.52 167.531 105.52 268.117 0 105.52-41.001 204.616-115.41 279-74.514 74.538-173.623 115.587-279.012 115.587-105.402 0-204.462-41.037-279-115.587-74.419-74.407-115.422-173.481-115.422-279s40.977-204.64 115.422-279c74.538-74.561 173.623-115.623 279-115.623 99.144 0 192.432 36.731 265.207 103.107l317.944-317.92c3.241-3.218 7.524-4.874 11.747-4.874 4.235 0 8.541 1.632 11.759 4.874 6.53 6.518 6.53 17.046 0.024 23.553zM138.774 302.384c-68.138 68.102-105.662 158.824-105.662 255.495 0 96.601 37.523 187.345 105.662 255.495 68.256 68.233 158.978 105.852 255.483 105.852 96.518 0 187.238-37.594 255.483-105.852 68.15-68.126 105.71-158.871 105.71-255.495 0-96.636-37.535-187.369-105.71-255.495-68.256-68.256-158.99-105.852-255.483-105.852-96.506-0.035-187.238 37.547-255.483 105.852z" />
<glyph unicode="&#xe924;" glyph-name="settings" data-tags="settings" horiz-adv-x="1006" d="M941.777 559.015h-60.117c-13.001 0-24.463 8.269-28.568 20.583l-11.427 34.282c-3.62 10.895-0.84 22.701 7.251 30.839l40.244 40.197c24.948 24.948 24.948 65.547-0.024 90.543l-58.828 58.84c-24.179 24.179-66.375 24.179-90.555 0l-40.22-40.173c-7.985-7.985-20.051-10.895-30.804-7.275l-34.353 11.427c-12.303 4.105-20.571 15.579-20.571 28.58v60.094c0 35.323-28.71 64.021-63.986 64.021h-94.009c-35.311 0-64.009-28.698-64.009-64.021v-60.094c0-12.977-8.269-24.463-20.607-28.58l-34.317-11.451c-10.682-3.573-22.831-0.686-30.804 7.299l-40.197 40.173c-12.078 12.090-28.166 18.75-45.271 18.75-17.094 0-33.182-6.66-45.271-18.75l-58.828-58.84c-12.113-12.090-18.773-28.178-18.773-45.271s6.66-33.205 18.773-45.271l40.197-40.197c8.103-8.127 10.907-19.945 7.263-30.839l-11.451-34.306c-4.093-12.314-15.544-20.56-28.556-20.56h-60.129c-35.311 0-63.998-28.722-63.998-64.021v-93.985c0-35.311 28.71-64.021 63.998-64.021h60.129c12.989 0 24.463-8.269 28.556-20.583l11.451-34.317c3.643-10.907 0.84-22.736-7.299-30.804l-40.161-40.208c-12.090-12.078-18.75-28.131-18.773-45.224 0-17.094 6.66-33.182 18.773-45.295l58.828-58.864c24.191-24.156 66.375-24.156 90.543 0l40.197 40.185c7.997 7.997 20.157 10.836 30.804 7.311l34.365-11.498c12.291-4.117 20.56-15.556 20.56-28.556v-60.117c0-35.287 28.71-63.974 64.009-63.974h94.009c35.299 0 63.986 28.698 63.986 63.974v60.117c0 13.001 8.269 24.44 20.642 28.568l34.282 11.486c10.67 3.573 22.819 0.686 30.804-7.311l40.22-40.185c24.179-24.156 66.375-24.156 90.507 0l58.899 58.864c12.066 12.113 18.726 28.178 18.726 45.271s-6.66 33.158-18.75 45.224l-40.22 40.256c-8.009 7.973-10.824 20.051-7.251 30.792l11.427 34.317c4.105 12.314 15.568 20.583 28.568 20.583h60.117c35.299 0 64.033 28.71 64.033 64.021v93.985c0 35.264-28.734 64.009-64.033 64.009zM971.918 400.995c0-16.609-13.545-30.142-30.142-30.142h-60.117c-27.598 0-52.002-17.579-60.685-43.769l-11.439-34.317c-7.76-23.15-1.798-48.252 15.449-65.476l40.244-40.22c5.643-5.69 8.801-13.237 8.801-21.269s-3.17-15.591-8.848-21.317l-58.875-58.84c-11.333-11.392-31.194-11.392-42.574 0l-40.22 40.185c-16.975 16.999-42.775 23.032-65.5 15.473l-34.258-11.451c-26.214-8.671-43.793-33.052-43.793-60.721v-60.117c0-16.585-13.557-30.094-30.142-30.094h-93.997c-16.597 0-30.106 13.509-30.106 30.094v60.117c0 27.669-17.59 52.038-43.781 60.697l-34.294 11.475c-6.53 2.188-13.344 3.312-20.24 3.312-17.117 0-33.205-6.684-45.295-18.785l-40.208-40.185c-11.392-11.392-31.23-11.368-42.61 0l-58.828 58.84c-5.714 5.737-8.86 13.308-8.86 21.34 0 8.009 3.147 15.544 8.86 21.246l40.161 40.197c17.283 17.224 23.209 42.314 15.497 65.5l-11.427 34.294c-8.73 26.19-33.087 43.793-60.721 43.793h-60.129c-16.597 0-30.106 13.533-30.106 30.142v93.985c0 16.585 13.509 30.13 30.106 30.13h60.129c27.634 0 52.014 17.567 60.697 43.745l11.451 34.306c7.736 23.15 1.786 48.276-15.473 65.5l-40.185 40.197c-5.69 5.69-8.86 13.261-8.86 21.317 0 8.032 3.17 15.591 8.86 21.293l58.828 58.864c11.38 11.38 31.218 11.404 42.633 0l40.185-40.197c16.987-17.011 42.811-23.032 65.512-15.485l34.27 11.427c26.19 8.742 43.781 33.134 43.781 60.721v60.094c0 16.62 13.509 30.142 30.118 30.142h93.985c16.597 0 30.142-13.521 30.142-30.142v-60.094c0-27.598 17.555-52.002 43.769-60.721l34.282-11.404c22.772-7.618 48.548-1.55 65.5 15.461l40.22 40.197c11.38 11.38 31.218 11.38 42.61 0l58.84-58.864c11.759-11.759 11.759-30.839 0-42.622l-40.197-40.197c-17.247-17.295-23.186-42.397-15.461-65.5l11.404-34.282c8.73-26.179 33.134-43.769 60.744-43.769h60.117c16.585 0 30.13-13.545 30.13-30.13v-93.962h0.047zM477.596 556.235c-41.238-9.18-73.852-41.782-83.019-83.043-7.476-33.714 0.414-68.221 21.601-94.624s52.771-41.592 86.616-41.592c8.363 0 16.845 0.923 25.185 2.78 41.297 9.168 73.899 41.758 83.043 83.043 7.5 33.714-0.39 68.221-21.577 94.624-26.439 32.969-69.676 48.17-111.849 38.813zM577.97 430.119c-6.21-28.012-29.254-51.044-57.314-57.278-5.938-1.313-11.924-1.987-17.839-1.987-23.493 0-45.461 10.528-60.188 28.899-14.728 18.359-20.205 42.468-14.952 66.080 6.234 28.048 29.254 51.068 57.29 57.29 5.962 1.325 11.948 1.987 17.851 1.987 23.529 0 45.484-10.528 60.188-28.899 14.751-18.348 20.193-42.48 14.964-66.091z" />
<glyph unicode="&#xe925;" glyph-name="smile" data-tags="smile" horiz-adv-x="1006" d="M741.774 210.456c-54.711-78.276-144.274-124.992-239.56-124.992-95.263 0-184.802 46.715-239.537 124.992-4.661 6.672-13.829 8.292-20.512 3.632-6.66-4.649-8.292-13.841-3.643-20.512 60.236-86.154 158.824-137.602 263.704-137.602 104.905 0 203.492 51.446 263.74 137.602 4.684 6.672 3.028 15.875-3.655 20.512-6.66 4.661-15.84 3.028-20.536-3.632zM1005.242 423.329c-2.91 29.574-17.259 56.226-40.303 75.034-20.501 16.798-45.768 24.996-71.982 24.594-59.242 158.587-211.785 272.032-390.754 272.032-1.041 0-2.047-0.177-3.099-0.177-9.617 21.21-11.889 41.060-5.891 58.911 11.924 35.417 50.831 53.647 51.234 53.836 7.405 3.36 10.67 12.090 7.287 19.507-3.36 7.405-12.090 10.706-19.495 7.358-2.058-0.923-50.701-23.458-66.872-71.001-7.524-22.133-6.672-45.685 2.248-70.184-163.65-13.509-300.484-121.75-355.928-269.749-56.675 0.402-105.497-42.645-111.293-100.138-5.856-58.367 34.696-110.761 91.56-120.698 35.453-194.443 205.74-342.407 410.226-342.407 204.462 0 374.702 147.858 410.238 342.218 57.55 9.393 98.718 62.081 92.826 120.863zM29.74 420.372c3.904 38.836 34.589 68.434 71.781 72.929-10.647-36.79-16.668-75.531-16.668-115.717 0-14.74 0.828-29.278 2.319-43.615-36.518 11.203-61.407 46.975-57.432 86.403zM502.201-10.272c-213.855 0-387.856 174.013-387.856 387.856 0 206.698 162.609 375.66 366.539 386.827 42.279-82.25 53.375-145.599 29.787-174.202-5.181-6.281-4.259-15.568 2.011-20.773 2.744-2.259 6.069-3.36 9.369-3.36 4.235 0 8.494 1.822 11.404 5.371 30.828 37.393 23.529 104.231-19.921 193.449 208.614-6.069 376.606-177.266 376.606-387.324-0.024-213.831-174.037-387.844-387.939-387.844zM917.219 333.732c1.538 14.42 2.378 29.053 2.378 43.852 0 40.268-6.069 79.092-16.739 115.942 15.804-1.573 30.828-7.713 43.426-17.993 16.928-13.841 27.444-33.418 29.609-55.196 4.034-39.83-21.482-75.827-58.674-86.604zM396.398 497.951c0-31.439-25.486-56.924-56.924-56.924s-56.924 25.486-56.924 56.924c0 31.439 25.486 56.924 56.924 56.924s56.924-25.486 56.924-56.924zM711.798 497.951c0-31.439-25.486-56.924-56.924-56.924s-56.924 25.486-56.924 56.924c0 31.439 25.486 56.924 56.924 56.924s56.924-25.486 56.924-56.924z" />
<glyph unicode="&#xe926;" glyph-name="sofa" data-tags="sofa" horiz-adv-x="1006" d="M1005.81 448.089l-0.035 68.54c0 72.929-58.13 132.373-130.433 134.763v73.958c0 65.121-52.925 118.060-117.953 118.060h-509.098c-65.098 0-118.024-52.961-118.024-118.048v-73.97c-72.302-2.366-130.433-61.845-130.433-134.763v-68.564c0-155.559 122.709-282.655 276.326-290.44v-90.46c0-8.056 6.542-14.574 14.586-14.574s14.574 6.53 14.574 14.574v89.727h394.989v-89.727c0-8.056 6.53-14.574 14.574-14.574s14.574 6.53 14.574 14.574v90.46c153.666 7.784 276.35 134.893 276.35 290.464zM248.291 814.249h509.098c48.974 0 88.792-39.877 88.792-88.899v-76.099c-62.625-11.64-110.205-66.647-110.205-132.598v-68.564c0-11.782-9.57-21.4-21.34-21.4h-423.711c-11.759 0-21.352 9.594-21.352 21.4v68.564c0 65.985-47.555 120.97-110.169 132.598v76.123c0.012 48.998 39.877 88.875 88.887 88.875zM714.673 186.040h-423.699c-144.463 0-261.989 117.563-261.989 262.036v68.564c0 58.367 47.413 105.816 105.733 105.816s105.733-47.448 105.733-105.816v-68.564c0-27.87 22.653-50.559 50.512-50.559h423.711c27.847 0 50.524 22.689 50.524 50.559v68.564c0 58.367 47.413 105.816 105.721 105.816 58.319 0 105.757-47.448 105.757-105.84l0.035-68.54c-0.059-144.475-117.586-262.036-262.036-262.036z" />
<glyph unicode="&#xe927;" glyph-name="star" data-tags="star" horiz-adv-x="1006" d="M1000.53 578.239c-8.644 25.19-30.379 40.828-56.761 40.828h-243.473c-16.452 0-37.502 8.515-40.203 16.263l-97.897 281.577c-9.116 26.169-32.868 43.057-60.523 43.057s-51.407-16.888-60.476-43.057l-97.98-281.565c-3.503-10.071-19.553-16.286-32.42-16.286h-243.532c-28.257 0-52.621-17.867-62.127-45.545-9.211-26.853-1.215-55.063 20.367-71.892l210.782-163.939c9.458-7.359 13.267-19.907 9.458-31.287l-95.266-285.81c-6.604-19.848-3.526-40.757 8.432-57.398 20.343-28.245 62.198-35.545 90.784-14.117l234.923 176.169c9.859 7.453 24.105 7.43 33.965 0.024l234.887-176.192c11.38-8.515 24.624-13.043 38.269-13.043 20.615 0 40.274 10.166 52.527 27.195 12.017 16.617 15.072 37.538 8.456 57.374l-95.289 285.787c-3.786 11.428 0.024 23.987 9.47 31.335l210.794 163.915c23.256 18.044 32.372 48.848 22.832 76.609zM955.822 529.816l-210.77-163.892c-21.381-16.605-30.037-45.062-21.464-70.842l95.289-285.81c3.833-11.451 0.212-20.001-3.514-25.179-9.116-12.631-27.278-16.286-40.392-6.463l-234.875 176.18c-11.204 8.397-24.471 12.796-38.422 12.796-13.975 0-27.254-4.422-38.434-12.819l-234.923-176.169c-13.079-9.824-31.252-6.132-40.321 6.439-3.715 5.165-7.371 13.704-3.514 25.202l95.266 285.81c8.562 25.756-0.071 54.214-21.428 70.818l-210.758 163.904c-14.317 11.168-10.154 27.384-8.538 32.113 3.562 10.343 12.866 21.393 28.327 21.393h243.484c25.131 0 56.525 12.583 66.148 40.25l97.968 281.588c4.882 14.046 17.029 19.058 26.759 19.058 9.741 0 21.876-5 26.759-19.058l97.921-281.612c10.213-29.306 50.793-40.227 73.955-40.227h243.496c14.989 0 20.78-10.449 22.938-16.699 3.75-11.074 1.863-26.771-10.956-36.783z" />
<glyph unicode="&#xe928;" glyph-name="star-circle" data-tags="star-circle" horiz-adv-x="1006" d="M858.484 803.614c-95.003 95.050-221.319 147.361-355.656 147.361-134.349 0-260.652-52.31-355.633-147.361-95.038-94.979-147.361-221.248-147.361-355.621 0-134.337 52.322-260.64 147.361-355.633 94.979-95.003 221.284-147.349 355.633-147.349 134.337 0 260.676 52.345 355.656 147.349 94.967 95.014 147.338 221.296 147.338 355.633 0 134.372-52.345 260.64-147.338 355.621zM833.831 116.991c-88.425-88.461-205.965-137.141-331.027-137.141-125.039 0-242.589 48.702-331.015 137.141-88.437 88.425-137.141 205.976-137.141 331.004 0 125.051 48.702 242.612 137.141 331.015 88.425 88.449 205.976 137.141 331.015 137.141 125.063 0 242.577-48.714 331.027-137.141 88.425-88.402 137.117-205.965 137.117-331.015s-48.69-242.612-137.117-331.004zM723.864 542.217h-122.058c-5.099 0-11.475 2.413-12.149 2.449l-49.045 141.174c-5.761 16.549-20.82 27.231-38.351 27.231s-32.567-10.682-38.316-27.231l-48.939-140.831c-0.686-0.935-4.259-2.768-8.399-2.768h-122.070c-17.839 0-33.194-11.179-39.156-28.533-5.808-16.94-0.698-34.814 13.036-45.496l105.639-82.132c1.928-1.502 2.697-4.069 1.928-6.352l-47.779-143.28c-4.176-12.563-2.2-25.788 5.418-36.352 12.882-17.898 39.51-22.381 57.397-8.908l117.776 88.307c2.52 1.905 4.365 1.881 6.873 0.024l117.717-88.331c7.157-5.371 15.556-8.21 24.274-8.21 13.060 0 25.481 6.4 33.205 17.141 7.618 10.576 9.57 23.801 5.394 36.352l-47.756 143.209c-0.769 2.354 0 4.897 1.893 6.4l105.698 82.156c14.467 11.25 20.134 30.485 14.184 47.85-5.465 15.887-19.767 26.131-36.411 26.131zM724.669 495.691l-105.662-82.144c-13.521-10.528-18.975-28.533-13.604-44.857l47.791-143.256c0.662-1.952 0.473-3.537-0.568-4.992-1.905-2.638-5.406-3.632-8.304-1.443l-117.74 88.354c-7.086 5.276-15.497 8.103-24.345 8.103-8.86 0-17.247-2.815-24.345-8.139l-117.788-88.307c-2.934-2.224-6.388-1.171-8.245 1.42-1.065 1.455-1.254 3.087-0.603 5.016l47.756 143.256c5.442 16.289-0.024 34.306-13.58 44.857l-105.615 82.144c-2.591 2.011-2.035 5.051-1.479 6.684 0.426 1.183 2.035 5.016 6.199 5.016h122.058c15.485 0 34.968 8.115 41.155 25.859l49.092 141.151c2.2 6.329 8.624 6.329 10.848 0l49.069-141.151c6.625-18.986 30.567-25.859 45.082-25.859h122.058c1.088 0 2.555 0 3.466-2.638 0.674-2.070 0.911-6.258-2.697-9.073z" />
<glyph unicode="&#xe929;" glyph-name="tablet" data-tags="tablet" horiz-adv-x="1006" d="M845.561 959.974h-685.347c-32.544 0-59.024-26.464-59.024-59.014v-905.962c0-32.505 26.464-58.992 59.024-58.992h685.347c32.505 0 58.969 26.465 58.969 58.992v905.962c0 32.55-26.464 59.014-58.969 59.014zM873.382-5.002c0-15.328-12.512-27.84-27.872-27.84h-685.296c-15.37 0-27.872 12.511-27.872 27.84v905.962c0 15.35 12.489 27.872 27.872 27.872h685.347c15.328 0 27.817-12.512 27.817-27.872v-905.962zM766.746 881.175h-527.777c-32.537 0-59.014-26.454-59.014-58.992v-575.017c0-32.527 26.464-58.992 59.014-58.992h527.777c32.527 0 59.014 26.454 59.014 58.992v575.017c-0.034 32.544-26.488 58.992-59.014 58.992zM794.563 247.158c0-15.35-12.511-27.84-27.872-27.84h-527.727c-15.37 0-27.872 12.489-27.872 27.84v575.017c0 15.35 12.511 27.84 27.872 27.84h527.777c15.328 0 27.861-12.489 27.861-27.84v-575.017h-0.034zM505.278 139.845c-32.417 0-58.747-26.344-58.747-58.72 0-32.427 26.355-58.781 58.747-58.781 32.373 0 58.703 26.366 58.703 58.781 0 32.373-26.331 58.72-58.703 58.72zM505.278 53.502c-15.227 0-27.606 12.391-27.606 27.618 0 15.171 12.378 27.562 27.606 27.562 15.182 0 27.552-12.391 27.552-27.562-0.010-15.248-12.378-27.618-27.552-27.618z" />
<glyph unicode="&#xe92a;" glyph-name="tick" data-tags="tick" horiz-adv-x="1006" d="M693.012 618.623l-245.759-304.151-136.561 122.543c-7.311 6.494-18.454 5.891-24.984-1.372-6.506-7.275-5.915-18.419 1.36-24.972l148.769-133.497c0.698-0.804 1.183-1.739 2.035-2.461 3.265-2.626 7.204-3.939 11.096-3.939 4.176 0 8.091 1.845 11.356 4.684 0.698 0.58 1.502 0.864 2.153 1.561 0.071 0.071 0.095 0.166 0.142 0.237 0.047 0.047 0.095 0.047 0.118 0.095l257.801 319.009c6.128 7.595 4.921 18.726-2.673 24.854-7.595 6.175-18.738 4.98-24.854-2.591zM858.472 803.602c-94.991 95.014-221.343 147.349-355.68 147.349-134.325 0-260.664-52.334-355.633-147.349-95.003-94.979-147.326-221.272-147.326-355.609 0-134.325 52.322-260.676 147.326-355.644 95.003-95.003 221.307-147.338 355.633-147.338 134.337 0 260.688 52.334 355.68 147.338 95.003 94.967 147.338 221.319 147.338 355.644 0 134.337-52.334 260.629-147.338 355.609zM833.488 117.346c-88.331-88.331-205.74-136.975-330.672-136.975-124.897 0-242.305 48.619-330.637 136.975-88.307 88.354-136.987 205.763-136.987 330.661s48.655 242.305 136.987 330.613c88.331 88.343 205.74 136.975 330.637 136.975 124.933 0 242.34-48.631 330.672-136.975 88.331-88.307 136.975-205.716 136.975-330.613 0-124.909-48.655-242.328-136.975-330.661z" />
<glyph unicode="&#xe92b;" glyph-name="tv" data-tags="tv" horiz-adv-x="1006" d="M874.231 693.534h-337.737l243.174 194.887c6.139 4.956 7.145 13.911 2.2 20.086-4.921 6.139-13.876 7.133-20.062 2.212l-266.181-213.4-154.407 116.14c-6.281 4.732-15.26 3.49-19.991-2.839-4.72-6.293-3.466-15.236 2.839-19.968l129.117-97.095h-321.792c-72.548 0-131.554-58.933-131.554-131.329v-448.754c0-72.418 59.016-131.329 131.554-131.329h742.842c72.548 0 131.565 58.909 131.565 131.329v448.73c0 72.406-59.016 131.329-131.565 131.329zM977.252 113.463c0-56.697-46.228-102.785-103.022-102.785h-742.842c-56.792 0-103.010 46.11-103.010 102.785v448.742c0 56.674 46.217 102.785 103.010 102.785h742.842c56.792 0 103.022-46.134 103.022-102.785v-448.742zM414.866 595.989c-281.145 0-317.273 0-317.273-258.149s36.103-258.149 317.273-258.149c281.11 0 317.249 0 317.249 258.149s-36.126 258.149-317.249 258.149zM414.866 108.211c-277.88 0-288.741 0-288.741 229.617s10.847 229.617 288.741 229.617c277.857 0 288.705 0 288.705-229.617-0.012-229.617-10.859-229.617-288.705-229.617zM854.701 478.916c-29.443 0-53.397-23.907-53.397-53.267 0-29.384 23.942-53.314 53.397-53.314 29.431 0 53.361 23.919 53.361 53.314-0.047 29.348-23.93 53.267-53.361 53.267zM854.701 400.878c-13.71 0-24.865 11.096-24.865 24.77 0 13.615 11.143 24.735 24.865 24.735 13.675 0 24.829-11.108 24.829-24.735-0.047-13.663-11.19-24.77-24.829-24.77zM854.701 303.311c-29.443 0-53.397-23.895-53.397-53.29 0-29.348 23.942-53.267 53.397-53.267 29.431 0 53.361 23.907 53.361 53.267-0.047 29.395-23.93 53.29-53.361 53.29zM854.701 225.296c-13.71 0-24.865 11.096-24.865 24.723 0 13.663 11.143 24.758 24.865 24.758 13.675 0 24.829-11.096 24.829-24.758-0.047-13.639-11.19-24.723-24.829-24.723z" />
</font>
</defs>
</svg>
